#TITLE:Zorba's Dance;
#SUBTITLE:;
#ARTIST:LCD;
#TITLETRANSLIT:;
#SUBTITLETRANSLIT:;
#ARTISTTRANSLIT:;
#CREDIT:;
#BANNER:Zorba.png;
#BACKGROUND:Zorba-BG.jpg;
#LYRICSPATH:;
#CDTITLE:armalyte-cdtitle.png;
#MUSIC:Zorba.mp3;
#OFFSET:-0.036;
#SAMPLESTART:55.600;
#SAMPLELENGTH:12.000;
#SELECTABLE:YES;
#BPMS:0.000=141.180,4.000=150.000,8.000=156.560,16.000=161.620,24.000=165.510,28.000=166.200,32.000=167.600,36.000=166.440,40.000=165.520,44.000=166.320,48.000=165.920,56.000=165.980,80.000=165.950,96.000=165.920,112.000=165.980,144.000=165.630,152.000=165.970;
#STOPS:148.000=1.087
;
#BGCHANGES:;
// cache tags:
#FIRSTBEAT:8.000;
#LASTBEAT:273.000;
#SONGFILENAME:Songs/Music V.I.P ^_^/Zorba's Dance/Zorba.sm;
#HASMUSIC:1;
#HASBANNER:1;
#MUSICLENGTH:101.276;
// end cache tags

//---------------dance-single - ----------------
#NOTES:
     dance-single:
     :
     Challenge:
     10:
     1.000,0.910,1.000,0.355,0.597,591.000,102.000,36.000,0.000,0.000:  // measure 1
0000
0000
0000
0000
,  // measure 2
0000
0000
0000
0000
,  // measure 3
1002
0010
0010
0010
2003
0010
0010
0010
,  // measure 4
3020
0100
0100
0100
2030
0001
0001
3001
,  // measure 5
0200
0010
0010
0010
0320
1000
1000
1000
,  // measure 6
0032
0100
0100
0100
0203
1000
1000
1000
,  // measure 7
0320
0001
0001
0001
2030
0100
0100
0100
,  // measure 8
3002
0100
0100
0100
2003
0010
0010
3010
,  // measure 9
1000
0001
1000
0001
1000
0001
1000
0001
1000
0001
1000
0001
1000
0000
0000
0000
,  // measure 10
0110
1100
1001
1010
,  // measure 11
1010
0000
1000
0000
1000
0000
1000
0000
0100
0010
0001
1000
0100
0010
0001
0000
,  // measure 12
1100
0000
0100
0000
0100
0000
0100
0000
0100
1000
0001
0010
0100
1000
0001
0000
,  // measure 13
0101
0000
0001
0000
0001
0000
0001
0000
0001
0100
0010
1000
0001
0100
0010
0000
,  // measure 14
1010
0000
0010
0000
0010
0000
0010
0000
0010
0100
0001
1000
0010
0100
0001
0000
,  // measure 15
1001
0000
1000
0000
1000
0000
1000
0000
1000
0100
0010
0001
1000
0010
0100
0000
,  // measure 16
0110
0000
0010
0000
0010
0000
0010
0000
0010
1000
0001
0010
0100
1000
0010
0000
,  // measure 17
0011
0000
0001
0000
0001
0000
0001
0000
0001
0100
0010
1000
0010
0100
0001
0000
,  // measure 18
1100
0000
0100
0000
0100
0000
0100
0000
0100
1000
0010
0100
0001
0010
0100
0000
,  // measure 19
1001
0011
0000
1100
0101
0000
0110
0000
,  // measure 20
0011
0000
1010
0000
0000
0000
0110
0000
1000
0001
0100
0010
1000
0001
0100
0000
,  // measure 21
1010
1100
0000
1001
0011
0000
0101
0000
,  // measure 22
1010
0000
0110
0000
0000
0000
0101
0000
0010
0100
0001
1000
0010
0100
0001
0000
,  // measure 23
1001
0000
0100
0000
0100
0000
0100
0000
1000
0010
1000
0100
0010
0001
0220
0000
,  // measure 24
0000
0330
1000
0000
1000
0000
1000
0000
0010
0100
0010
0100
0001
0010
2002
0000
,  // measure 25
0000
3003
0010
0000
0010
0000
0010
0000
0001
0100
0001
1000
0100
1000
0220
0000
,  // measure 26
0000
0330
0001
0000
0001
0000
0001
0000
1000
0010
1000
0001
0100
0001
0010
0000
,  // measure 27
1000
0000
0010
0000
0010
0000
0010
0000
0001
0100
0001
1000
0001
0010
0202
0000
,  // measure 28
0000
0303
0010
0000
0010
0000
0010
0000
1000
0010
1000
0001
1000
0100
2020
0000
,  // measure 29
0000
3030
0100
0000
0100
0000
0100
0000
0010
0001
0010
0100
0010
1000
0220
0000
,  // measure 30
0000
0330
0001
0000
0001
0000
0001
0000
0010
1000
0010
0100
0010
0001
0010
0000
,  // measure 31
1001
1100
0000
0011
0101
0000
0110
0000
,  // measure 32
1010
0000
0011
0000
0000
0000
1001
0000
0010
0100
0010
0001
0010
0100
0010
0000
,  // measure 33
1001
0101
0000
1010
0011
0000
1100
0000
,  // measure 34
0101
0000
1001
0000
0000
0000
0110
0000
1000
0100
0010
0100
1000
0100
0010
0000
,  // measure 35
0101
0110
0000
1100
0110
0000
0101
0000
,  // measure 36
1010
0000
0110
0000
0000
0000
0011
0000
0100
0001
0100
0010
0100
0001
0100
0000
,  // measure 37
0010
0000
0010
0000
0010
0000
0010
0000
1000
0100
0010
0001
0010
0100
1000
0000
,  // measure 38
0110
0000
0000
0000
1000
0010
0100
0000
0001
0000
0010
0000
1000
0000
0010
0000
,  // measure 39
0001
0000
0100
0000
0001
0010
0100
0000
1000
0000
0010
0000
0001
0000
0010
0000
,  // measure 40
1000
0000
0100
0000
0010
0001
0100
0000
1000
0000
0100
0000
0001
0000
0100
0000
,  // measure 41
1000
0000
0010
0000
0100
0001
0010
0000
1000
0000
0010
0000
0001
0000
0010
0000
,  // measure 42
1000
0000
0010
0000
0001
1000
0010
0000
0001
0000
0010
0000
1000
0000
0100
0000
,  // measure 43
0001
0000
0100
0000
1000
0001
0010
0000
1000
0000
0010
0000
0001
0000
0100
0000
,  // measure 44
1000
0000
0100
0000
0001
0010
0100
0000
1000
0000
0010
0000
0001
0000
0010
0000
,  // measure 45
1000
0100
1001
0000
0011
0000
1100
0000
,  // measure 46
0011
0000
0000
0000
0100
1000
0010
0000
0100
0000
0001
0000
0010
0000
1000
0000
,  // measure 47
0010
0000
0001
0000
0100
1000
0100
0000
0001
0000
0010
0000
0100
0000
1000
0000
,  // measure 48
0010
0000
0001
0000
0010
1000
0100
0000
0001
0000
0100
0000
1000
0000
0100
0000
,  // measure 49
0010
0001
1010
0000
0101
0000
1100
0000
,  // measure 50
0011
0000
0000
0000
0001
0010
0100
0000
0001
0000
0100
0000
1000
0000
0100
0000
,  // measure 51
0001
0000
0100
0000
1000
0010
0001
0000
0010
0000
1000
0000
0100
0000
0010
0000
,  // measure 52
1000
0000
0010
0000
0001
0100
1000
0000
0100
0000
0001
0000
0010
0000
0100
0000
,  // measure 53
1000
0010
1001
0000
0000
0000
0110
1000
,  // measure 54
0100
0000
0010
0000
0001
0000
0100
0000
0100
0000
0100
0000
1000
0010
0001
0010
,  // measure 55
1000
0010
2002
0000
0000
3003
0010
0000
0010
0000
0010
0000
0001
0010
1000
0010
,  // measure 56
0001
0010
2020
0000
0000
3030
0001
0000
0001
0000
0001
0000
1000
0100
0001
0100
,  // measure 57
1000
0100
0202
0000
0000
0303
1000
0000
1000
0000
1000
0000
0100
0001
0100
1000
,  // measure 58
0100
0001
0100
0000
1000
0000
0010
0000
0010
0000
0010
0000
0100
0001
0010
1000
,  // measure 59
0010
0001
0220
0000
0000
0330
1000
0000
1000
0000
1000
0000
0100
0010
0001
0100
,  // measure 60
1000
0100
2002
0000
0000
3003
0010
0000
0010
0000
0010
0000
0100
1000
0010
0001
,  // measure 61
0010
1000
0220
0000
0000
0330
0001
0000
0001
0000
0001
0000
1000
0010
0001
0010
,  // measure 62
1000
0100
0001
0000
1010
0000
1001
0000
0000
0000
0011
0000
1001
0000
0000
0000
,  // measure 63
0110
0000
0000
0000
0011
0000
0101
0000
0000
0000
1010
0000
0100
1000
0010
0001
,  // measure 64
0010
1000
0100
0000
0011
0000
0110
0000
0000
0000
1010
0000
0110
0000
0000
0000
,  // measure 65
1100
0000
0000
0000
0101
0000
1001
0000
0000
0000
1100
0000
0010
0001
0100
1000
,  // measure 66
0100
0001
0010
0000
1100
0000
1001
0000
0000
0000
0011
0000
1010
0000
0000
0000
,  // measure 67
0101
0000
0000
0000
1100
0000
0101
0000
0000
0000
1001
0000
0010
1000
0100
0001
,  // measure 68
0100
1000
0010
0000
0100
0000
0100
0000
0100
0000
0010
0000
0100
1000
0010
0100
,  // measure 69
0001
0010
0100
0000
1001
0000
0000
0000
0000
0000
0000
0000
0000
0000
0000
0000
;

//---------------dance-single - ----------------
#NOTES:
     dance-single:
     :
     Hard:
     9:
     0.718,0.607,0.513,0.020,0.000,455.000,52.000,2.000,0.000,0.000:  // measure 1
0000
0000
0000
0000
,  // measure 2
0000
0000
0000
0000
,  // measure 3
1001
0010
0001
0100
0010
1000
0010
0010
,  // measure 4
0010
0001
0010
1000
0100
0010
0010
0010
,  // measure 5
0001
0100
0010
1000
0100
1000
1000
1000
,  // measure 6
0001
0010
0100
1000
0010
0100
0100
0100
,  // measure 7
0001
0010
1000
0010
0001
0100
0100
0100
,  // measure 8
0010
1000
0100
0010
0001
1000
1000
1000
,  // measure 9
2002
0000
0000
0000
,  // measure 10
3003
0110
1001
0110
,  // measure 11
1000
0100
0010
0001
1000
0100
0001
0100
,  // measure 12
1000
0100
0010
0001
0100
1000
0100
0001
,  // measure 13
0010
0001
0100
0010
1000
0100
0001
0100
,  // measure 14
1000
0010
0100
0001
0010
1000
0010
0001
,  // measure 15
1000
0100
0100
0100
0010
0001
1000
0010
,  // measure 16
0100
0001
0001
0001
0100
0001
0010
0100
,  // measure 17
1000
0010
0010
0010
0001
0010
1000
0100
,  // measure 18
0010
0001
0001
0001
0100
0010
1000
0100
,  // measure 19
0000
0011
0000
0100
0101
0000
0110
0000
,  // measure 20
0010
1010
0000
1000
0100
0001
0100
1000
,  // measure 21
0000
1100
0000
0001
0011
0000
0101
0000
,  // measure 22
1000
0110
0000
0001
0100
1000
0100
0001
,  // measure 23
0000
0100
0100
0100
1000
0010
0100
1001
,  // measure 24
0000
0010
0010
0010
0001
0100
0010
1001
,  // measure 25
0000
1000
1000
1000
0010
0100
0001
0110
,  // measure 26
0000
0001
0001
0001
0100
0010
1000
0100
,  // measure 27
0000
0010
0010
0010
1000
0100
0010
1001
,  // measure 28
0000
1000
1000
1000
0100
0010
0001
0110
,  // measure 29
0000
0100
0100
0100
0010
0001
0100
1001
,  // measure 30
0000
0001
0001
0001
0010
0100
1000
0010
,  // measure 31
0000
1100
0000
0010
0101
0000
0110
0000
,  // measure 32
0010
0011
0000
1000
0010
0001
0010
1000
,  // measure 33
0000
0101
0000
0010
0011
0000
1100
0000
,  // measure 34
0001
1001
0000
0001
0010
1000
0010
0001
,  // measure 35
0000
0110
0000
1000
0110
0000
0101
0000
,  // measure 36
0001
0110
0000
0001
0100
1000
0100
0001
,  // measure 37
0010
0100
0100
0100
1000
0100
0001
0010
,  // measure 38
1001
0000
1000
0010
0100
0001
1000
0010
,  // measure 39
0100
0001
0010
0100
1000
0001
0010
0100
,  // measure 40
1000
0010
0100
0001
0010
0100
1000
0010
,  // measure 41
0100
0010
1000
0100
0010
0100
1000
0001
,  // measure 42
0100
0010
1000
0010
0100
0001
0010
0100
,  // measure 43
0010
0001
0100
0010
0100
0001
1000
0010
,  // measure 44
0100
0001
0010
0100
1000
0001
0100
0010
,  // measure 45
1000
0001
0100
0000
0011
0000
1100
0000
,  // measure 46
0011
0000
1000
0010
0100
0001
0010
0100
,  // measure 47
1000
0001
0100
0001
1000
0100
1000
0001
,  // measure 48
0100
0001
1000
0010
1000
0001
0010
0001
,  // measure 49
0100
0010
1000
0000
0011
0000
1100
0000
,  // measure 50
0011
0000
0001
0010
0001
0100
0010
1000
,  // measure 51
0100
1000
0010
0100
0010
0001
0010
1000
,  // measure 52
0100
0010
0001
0100
0010
0100
1000
0100
,  // measure 53
0001
0010
0100
0000
0000
0000
1001
0000
,  // measure 54
0000
0000
0000
0100
0100
0100
1000
0010
,  // measure 55
0001
0010
1000
0010
0010
0010
0100
1000
,  // measure 56
0100
0001
0010
0100
0100
0100
1000
0010
,  // measure 57
0001
0010
1000
0100
0100
0100
0010
1000
,  // measure 58
0010
0001
0100
0010
0010
0010
1000
0100
,  // measure 59
0001
0100
1000
0010
0010
0010
0100
1000
,  // measure 60
0100
0001
0010
0100
0100
0100
1000
0010
,  // measure 61
0001
0010
1000
0001
0001
0001
0010
1000
,  // measure 62
0010
0001
0000
0110
0000
0010
1001
0000
,  // measure 63
0110
0000
0010
0101
0000
1000
0010
0001
,  // measure 64
0010
1000
0000
0110
0000
0100
0110
0000
,  // measure 65
1100
0000
0001
1001
0000
0001
0010
1000
,  // measure 66
0010
0001
0000
1001
0000
0010
1010
0000
,  // measure 67
0101
0000
0100
0101
0000
1000
0100
0001
,  // measure 68
0100
1000
0010
0001
0001
0001
1000
0010
,  // measure 69
0001
0100
1001
0000
0000
0000
0000
0000
;

//---------------dance-single - ----------------
#NOTES:
     dance-single:
     :
     Medium:
     6:
     0.502,0.438,0.197,0.138,0.000,322.000,20.000,14.000,0.000,0.000:  // measure 1
0000
0000
0000
0000
,  // measure 2
0000
0000
0000
0000
,  // measure 3
1001
0000
0001
0000
1000
0010
0100
0000
,  // measure 4
0001
0000
1000
0000
1000
0001
0010
0000
,  // measure 5
0100
0000
0010
0000
0001
0100
0010
0000
,  // measure 6
1000
0000
0010
0000
0010
0100
0001
0000
,  // measure 7
0010
0000
0100
0000
0100
1000
0010
0000
,  // measure 8
0100
0000
0001
0000
0001
0010
0100
0000
,  // measure 9
2002
0000
0000
0000
,  // measure 10
3003
0011
0110
1100
,  // measure 11
0001
0000
0001
0000
0010
0100
1000
0000
,  // measure 12
0010
0000
0100
0000
0100
0001
0010
0000
,  // measure 13
0100
0000
1000
0000
1000
0001
0100
0000
,  // measure 14
0001
0000
1000
0000
1000
0100
0010
0000
,  // measure 15
0001
0000
0010
0000
0010
0100
1000
0000
,  // measure 16
0010
0000
0100
0000
0100
0010
1000
0000
,  // measure 17
0010
0000
0010
0000
0001
0100
0010
0000
,  // measure 18
1000
0000
0100
0000
0100
0010
0001
0000
,  // measure 19
0000
1001
0000
0010
1000
0000
0001
0000
,  // measure 20
0100
0010
0000
1000
0001
0010
0100
0000
,  // measure 21
0000
1001
0000
0010
1000
0000
0001
0000
,  // measure 22
0010
0100
0000
1000
0001
0100
0010
0000
,  // measure 23
1000
0000
0100
0000
1000
0010
0100
0002
,  // measure 24
0000
0003
0010
0000
0001
0010
0100
2000
,  // measure 25
0000
3000
0001
0000
0100
0010
1000
0200
,  // measure 26
0000
0300
0010
0000
0001
1000
0100
0000
,  // measure 27
0010
0000
0100
0000
1000
0001
0010
0200
,  // measure 28
0000
0300
1000
0000
0010
0100
0001
2000
,  // measure 29
0000
3000
0100
0000
0010
0001
1000
0020
,  // measure 30
0000
0030
0100
0000
0001
0010
0100
0000
,  // measure 31
0000
0110
0000
1000
0001
0000
0100
0000
,  // measure 32
0010
1000
0000
0001
0010
0100
1000
0000
,  // measure 33
0000
0110
0000
1000
0010
0000
0100
0000
,  // measure 34
0001
1000
0000
0001
0010
0100
1000
0000
,  // measure 35
0000
0110
0000
0001
0010
0000
0100
0000
,  // measure 36
1000
0001
0000
0100
0001
0010
0100
0000
,  // measure 37
1000
0000
1000
0000
0100
0010
0001
0100
,  // measure 38
0010
0000
1000
0000
0001
0000
1000
0001
,  // measure 39
1000
0000
0010
0000
0100
0000
0010
0100
,  // measure 40
0010
0000
1000
0000
0100
0000
1000
0001
,  // measure 41
0100
0000
0001
0000
0100
0000
0001
1000
,  // measure 42
0100
0000
0010
0000
0001
0000
0010
0001
,  // measure 43
0100
0000
0010
0000
1000
0000
0010
1000
,  // measure 44
0100
0000
0001
0000
0100
0000
0010
1000
,  // measure 45
0100
0010
1001
0110
,  // measure 46
1001
0000
1000
0000
0100
0000
1000
0010
,  // measure 47
0100
0000
0001
0000
0100
0000
0001
0010
,  // measure 48
0100
0000
1000
0000
0010
0000
1000
0100
,  // measure 49
0010
0001
1010
1100
,  // measure 50
0101
0000
1000
0000
0010
0000
1000
0100
,  // measure 51
0001
0000
0100
0000
1000
0000
0001
0100
,  // measure 52
1000
0000
0100
0000
0001
0000
1000
0100
,  // measure 53
0001
0100
0000
1001
,  // measure 54
0000
0000
0000
0000
0100
0000
0100
0001
,  // measure 55
0010
0200
0000
0300
1000
0000
0100
0010
,  // measure 56
0001
2000
0000
3000
0010
0000
0100
0001
,  // measure 57
1000
0200
0000
0300
0010
0000
0001
0100
,  // measure 58
0010
0000
1000
0000
0100
0000
0010
0001
,  // measure 59
0100
0020
0000
0030
1000
0000
0100
0010
,  // measure 60
0001
0200
0000
0300
0001
0000
0010
0100
,  // measure 61
1000
0002
0000
0003
1000
0000
0100
0010
,  // measure 62
0001
0000
0000
1010
0000
0100
0001
0000
,  // measure 63
0010
0000
0001
1000
0000
0010
0100
0001
,  // measure 64
1000
0000
0000
0011
0000
0100
1000
0000
,  // measure 65
0001
0000
1000
0100
0000
0010
0001
1000
,  // measure 66
0010
0000
0000
0101
0000
0010
1000
0000
,  // measure 67
0010
0000
0100
0001
0000
0010
1000
0001
,  // measure 68
0100
0000
0001
0000
0001
0000
0010
0100
,  // measure 69
1000
0010
0100
0000
0000
0000
0000
0000
;

//---------------dance-single - ----------------
#NOTES:
     dance-single:
     :
     Easy:
     3:
     0.291,0.337,0.267,0.020,0.000,177.000,27.000,2.000,0.000,0.000:  // measure 1
0000
0000
0000
0000
,  // measure 2
0000
0000
0000
0000
,  // measure 3
0001
0001
1000
0000
,  // measure 4
0010
0010
0100
0000
,  // measure 5
1000
1000
0100
0000
,  // measure 6
0001
0001
1000
0000
,  // measure 7
0100
0100
0001
0000
,  // measure 8
0010
0010
1000
0000
,  // measure 9
2002
0000
0000
0000
,  // measure 10
3003
1001
1001
1001
,  // measure 11
0000
0100
0001
1000
,  // measure 12
0000
0100
1000
0001
,  // measure 13
0000
1000
0001
0100
,  // measure 14
0000
0001
1000
0100
,  // measure 15
0000
0010
0001
0100
,  // measure 16
0000
0100
0001
0010
,  // measure 17
0000
0100
1000
0010
,  // measure 18
0000
0010
1000
0100
,  // measure 19
0000
0000
0100
0100
,  // measure 20
1001
0000
0100
1001
,  // measure 21
0000
0000
0010
0010
,  // measure 22
1001
0000
0010
1001
,  // measure 23
0000
1000
0100
0010
,  // measure 24
0000
0001
0010
0100
,  // measure 25
0000
1000
0010
0100
,  // measure 26
0000
0001
0100
0010
,  // measure 27
0000
1000
0100
0010
,  // measure 28
0000
0001
0100
0010
,  // measure 29
0000
1000
0010
0100
,  // measure 30
0000
0001
0010
0100
,  // measure 31
0000
0000
1000
1000
,  // measure 32
0110
0000
1000
0110
,  // measure 33
0000
0000
0001
0001
,  // measure 34
0110
0000
0001
0110
,  // measure 35
0000
0000
0100
0010
,  // measure 36
1001
0000
0100
1001
,  // measure 37
0000
1000
0100
0010
,  // measure 38
0001
0000
0000
0100
,  // measure 39
0000
0010
0000
1000
,  // measure 40
0000
0100
0000
0001
,  // measure 41
0000
0100
0000
1000
,  // measure 42
0000
0010
0000
0001
,  // measure 43
0000
0010
0000
1000
,  // measure 44
0000
0001
0000
0010
,  // measure 45
0000
0001
1001
1001
,  // measure 46
1001
1000
0000
0100
,  // measure 47
0000
0010
0000
1000
,  // measure 48
0000
0100
0000
0001
,  // measure 49
0000
0010
0110
0110
,  // measure 50
0110
0100
0000
1000
,  // measure 51
0000
0010
0000
0001
,  // measure 52
0000
0100
0000
1000
,  // measure 53
0000
0010
0000
1001
,  // measure 54
0000
0000
0010
1000
,  // measure 55
0100
0000
1000
0100
,  // measure 56
0001
0000
0100
1000
,  // measure 57
0010
0000
0100
0001
,  // measure 58
0010
0000
0001
0010
,  // measure 59
1000
0000
0010
0001
,  // measure 60
1000
0000
1000
0100
,  // measure 61
0001
0000
1000
0010
,  // measure 62
0001
0000
0000
0001
,  // measure 63
1000
0110
0000
0001
,  // measure 64
0110
0000
0000
0100
,  // measure 65
0010
1001
0000
0010
,  // measure 66
1001
0000
0000
0001
,  // measure 67
0100
1010
0000
0001
,  // measure 68
1010
0000
0001
0010
,  // measure 69
0100
1000
0000
0000
;
